[MF] [Super Mini-HD][V2] Johnny English Reborn (2011) - พยัคฆ์ร้าย ศูนย์ ศูนย์ ก๊าก..สายลับกลับมาป่วน [720p][Audio AC3 5.1:Th+En][Rip][.avi]


 

Johnny English Reborn (2011) พยัคฆ์ร้าย ศูนย์ ศูนย์ ก๊าก..สายลับกลับมาป่วน| 1.67GB

เรื่องย่อ

      นับแต่สายลับของ MI7 หายตัวไปจากวงการ อันที่จริงเขาแอบซุ่มฝึกปรือฝีมืออันโดดเด่น อยู่ในดินแดนอันห่างไกลในเอเชีย แต่เมื่อบรรดาผู้มีอำนาจในหน่วยงานพบข้อมูลว่า มีความพยายามของคนกลุ่มหนึ่ง ที่คิดจะปลิดชีวิตผู้นำจีน พวกเขาจึงต้องตามหาตัวสายลับ สุดแหวกแนวผู้นี้ บัดนี้ เมื่อโลกต้องการความช่วยเหลือจากเขาอีกครั้ง จอห์นนี่ อิงลิชจึงต้อง กลับมาลุยอีกรอบ เมื่อโอกาสไถ่บาปมาถึง เขาต้องใช้อุปกรณ์ไฮเทคล่าสุดเพื่อคลี่คลาย เครือข่ายสมรู้ร่วมคิดที่แพร่ กระจายเข้าไปทั้งในเคจีบี   ,    ซีไอเอ และแม้แต่เอ็มไอ-7 ด้วยเวลาที่เหลือเพียงน้อยนิดก่อนจะถึงการประชุมนานาชาติ หนึ่งชายชาตรีผู้นี้ต้องใช้ ทุกกลเม็ดที่พกมาในกระเป๋าเพื่อปกป้องพวกเราทุก คน สำหรับจอห์นนี่ อิงลิช หายนะ อาจเป็นทางเลือกหนึ่ง แต่เขามิอาจล้มเหลวได้

General
Complete name: SP.MN-HDJE_2.2011_seed-movie.blogspot.com.avi
Format : Matroska
Format version : Version 2
File size: 1.49 GiB
Duration : 1h 41mn
Overall bit rate : 2 109 Kbps
Movie name : Johnny English 2 Reborn 2011 720p BRRIP x264 AC3-PORSC
Encoded date : UTC 2012-01-11 07:04:06
Writing application: mkvmerge v4.8.0 ('I Got The...') built on May 24 2011 03:12:58
Writing library: libebml v1.2.0 + libmatroska v1.1.0

Video
ID : 1
Format : AVC
Format/Info: Advanced Video Codec
Format profile : Main@L5.1
Format settings, CABAC : Yes
Format settings, ReFrames: 1 frame
Codec ID : V_MPEG4/ISO/AVC
Duration : 1h 41mn
Bit rate : 1 555 Kbps
Width: 1 280 pixels
Height : 528 pixels
Display aspect ratio : 2.40:1
Frame rate : 23.976 fps
Color space: YUV
Chroma subsampling : 4:2:0
Bit depth: 8 bits
Scan type: Progressive
Bits/(Pixel*Frame) : 0.096
Stream size: 1.10 GiB (74%)
Title: SP.MN-HDv2 Johnny English 2 Reborn (2011) 720p.SS Th+En.avi
Language : English
Default: Yes
Forced : No

Audio #1
ID : 2
Format : AC-3
Format/Info: Audio Coding 3
Mode extension : CM (complete main)
Codec ID : A_AC3
Duration : 1h 41mn
Bit rate mode: Constant
Bit rate : 256 Kbps
Channel(s) : 6 channels
Channel positions: Front: L C R, Side: L R, LFE
Sampling rate: 44.1 KHz
Bit depth: 16 bits
Compression mode : Lossy
Stream size: 186 MiB (12%)
Title: AC3 256 Th - DVD Master
Language : Thai
Default: Yes
Forced : No

Audio #2
ID : 3
Format : AC-3
Format/Info: Audio Coding 3
Mode extension : CM (complete main)
Codec ID : A_AC3
Duration : 1h 41mn
Bit rate mode: Constant
Bit rate : 256 Kbps
Channel(s) : 6 channels
Channel positions: Front: L C R, Side: L R, LFE
Sampling rate: 44.1 KHz
Bit depth: 16 bits
Compression mode : Lossy
Stream size: 186 MiB (12%)
Title: AC3 256 Eng - DVD Master
Language : English
Default: No
Forced : No

Text #1
ID : 4
Format : VobSub
Codec ID : S_VOBSUB
Codec ID/Info: The same subtitle format used on DVDs
Title: Sub Th Low
Language : Thai
Default: No
Forced : No

Text #2
ID : 5
Format : VobSub
Codec ID : S_VOBSUB
Codec ID/Info: The same subtitle format used on DVDs
Title: Sub Th DVD MASTER
Language : Thai
Default: No
Forced : No

Text #3
ID : 6
Format : VobSub
Codec ID : S_VOBSUB
Codec ID/Info: The same subtitle format used on DVDs
Title: Sub Eng DVD MASTER
Language : English
Default: No
Forced : No
  

PART/ 200MB MKV

0 ความคิดเห็น:

แสดงความคิดเห็น